Welcome Guest ( Log In | Register )

2 Pages V   1 2 >  
???????? ? ??? ??????????? ????? ????
> Metro_Fun - SOUNDBASE Chart List Mix Vol.1 & Vol.2 2005, Back online again 2 Metro_Fun's Hardstyle Sets!
Administrator
post Nov 28 2005, 01:56 AM
Post #1


SOUNDBASE.RU Head
Group Icon

Group: Super Administrator
Posts: 936
Joined: 29-September 05
From: Saint-Petersburg, Russia
Member No.: 1



Reupped 2 Metro_Fun's Hardstyle 2005 Sets!!!

Metro_Fun - SOUNDBASE Chart List Mix Vol.1 January 2005:

001 Sam Punk presents Wheels Of Steel - Chemical Overdose (Sam Punk's Gladheadz HQ Club Mix)
002 Zatox - Drop The Ghetto Blaster
003 Montorsi vs. Tim Hidgem - Love Me (Hardtrance Mix)
004 Alex Megane - Hurricane (Rob Mayth Remix)
005 DJ Virus vs. Jason Midrow - All Your Bass 2005 (Le Brisc vs. Jason Midrow Mix)
006 Montorsi vs. Tim Hidgem - Love Me (Hardstyle Mix)
007 Philippe Rochard con Weichei - Our Passion (Fritz Laurent vs. Cee Gee Remix)
008 DJ Kubrik vs. Mental Miracle - Anthem (DJ Kubrik Mix)
009 Enigmato - Trip To Hardstyland
010 Trance Generators - Darkness Will Rule
011 Seikos - Rhythm Of Life (Lightforce vs. William H Remix)
012 Zatox - Good Vibration


Metro_Fun - SOUNDBASE Chart List Mix Vol.2 April 2005:

001 Kat - Autobiography
002 Jeckyll and Hyde - Precious Dreamer
003 Dj Act - The Sound Of Bass (Deepack Remix)
004 Southstylers - Wicked Generation
005 Tuneboy - Money Talks Bullshit Walks (Hardstyle Masterz Remix)
006 Ma-pe-rook - Here Comes The Bass (Hard Mix)
007 Dj Vortex - Incoming 2005 (4 Navigators Remix)
008 Southstylers - Jazeker
009 Dj Pibert - Believe (Coca Remix)
010 Dj Act - The Sound Of Bass (Coca Remix)
011 Special D - Come With Me (Rob Mayth Remix)

DOWNLOAD @ SOUNDBASE.RU

Enjoy with Bangin Beats and Real Hardstyle Kickin Ass Bass!! wink.gif


--------------------

???????????

? ??????? ???, ????? ????? ????? ??????. ?????? ?? ??????, ?????? ?????. ??? ???????, ?????? ? ???? ?????? ? ?????? ?? ??????. ? ??? ?? ???????. ?? ???? ????????? ????? ??? ???? ????????? ????. ?? ???????? ????? ? ???????? ??????, ????? ? ????? ??? ????
????????????
?????? ? ???????. ??????? ???? ???????
? ?? ????????, ?????? ?? ??????.
??????, ?? ????, ?? ??????. ????? ? ????? ??? ??? ????????
??? ?? ???? ????? ?? ????????
?????? ??????. ? ?? ????? ?????? ?????? ?????. ? ????? ?????? ?????? ????????? ??.
?? ????
??? ?? ????! ?? ????! ????? ? ???? ?????

(?) ?. ????????. "??????????".
????????? ? ?????? ????????
 
+???????? ? ???????????? ??????? ?????????
Croeky
post Nov 28 2005, 03:17 AM
Post #2


HARDDANCE Wannabe
**

Group: Donators
Posts: 30
Joined: 17-October 05
From: Dilbeek (Belgium)
Member No.: 358



the first volume is super just the first part i don't like to much smile.gif

i will listen to the next volume tomorrow


--------------------
????????? ? ?????? ????????
 
+???????? ? ???????????? ??????? ?????????
hollywood64
post Nov 28 2005, 07:23 AM
Post #3


HARDDANCE Gangsta
Group Icon

Group: Elite
Posts: 724
Joined: 25-October 05
From: Melbourne, Australia
Member No.: 1,242



excellent work metro fun smile.gif
cant wait...............

biggrin.gif


--------------------
????????? ? ?????? ????????
 
+???????? ? ???????????? ??????? ?????????
MOH83
post Nov 28 2005, 11:00 AM
Post #4


HARDDANCE Wannabe
Group Icon

Group: Members
Posts: 31
Joined: 13-November 05
Member No.: 3,205



Hi! I've renamed .ru files to .mp3 but still not works:-(
[?]what's wrong?
????????? ? ?????? ????????
 
+???????? ? ???????????? ??????? ?????????
Qris
post Nov 28 2005, 03:46 PM
Post #5


I just love Hardstyle!
Group Icon

Group: Elite
Posts: 390
Joined: 26-October 05
From: Groningen, The Netherlands
Member No.: 1,506



Chart list mix 1 havent got a cue file?

Nice mix though smile.gif


--------------------
If you want an album, check this topic!
http://www.soundbase.ru/forum/index.php?showtopic=13723

And if you want a live set, you'd better check this topic!
http://www.soundbase.ru/forum/index.php?showtopic=35655
????????? ? ?????? ????????
 
+???????? ? ???????????? ??????? ?????????
djBaerle
post Nov 28 2005, 10:45 PM
Post #6



Group Icon

Group: Members
Posts: 3
Joined: 1-November 05
Member No.: 2,313



Hi, I?ve got the same Problem like MOH83! I?ve renamed ru to mp3 but it still don?t work.... sad.gif
????????? ? ?????? ????????
 
+???????? ? ???????????? ??????? ?????????
Administrator
post Nov 29 2005, 06:51 PM
Post #7


SOUNDBASE.RU Head
Group Icon

Group: Super Administrator
Posts: 936
Joined: 29-September 05
From: Saint-Petersburg, Russia
Member No.: 1



Unpack files with WinRar wink.gif


--------------------

???????????

? ??????? ???, ????? ????? ????? ??????. ?????? ?? ??????, ?????? ?????. ??? ???????, ?????? ? ???? ?????? ? ?????? ?? ??????. ? ??? ?? ???????. ?? ???? ????????? ????? ??? ???? ????????? ????. ?? ???????? ????? ? ???????? ??????, ????? ? ????? ??? ????
????????????
?????? ? ???????. ??????? ???? ???????
? ?? ????????, ?????? ?? ??????.
??????, ?? ????, ?? ??????. ????? ? ????? ??? ??? ????????
??? ?? ???? ????? ?? ????????
?????? ??????. ? ?? ????? ?????? ?????? ?????. ? ????? ?????? ?????? ????????? ??.
?? ????
??? ?? ????! ?? ????! ????? ? ???? ?????

(?) ?. ????????. "??????????".
????????? ? ?????? ????????
 
+???????? ? ???????????? ??????? ?????????
MOH83
post Dec 1 2005, 12:56 PM
Post #8


HARDDANCE Wannabe
Group Icon

Group: Members
Posts: 31
Joined: 13-November 05
Member No.: 3,205



Now works, thx.
METRO FUN RULEZ!!!:-)
????????? ? ?????? ????????
 
+???????? ? ???????????? ??????? ?????????
Dutch
post Dec 1 2005, 03:14 PM
Post #9


HARDDANCE Wannabe
Group Icon

Group: Members
Posts: 29
Joined: 27-October 05
Member No.: 1,675



QUOTE
Chart list mix 1 havent got a cue file?


Same question here huh.gif

Cool mix cool.gif


--------------------
From the birthplace of HardStyle.
????????? ? ?????? ????????
 
+???????? ? ???????????? ??????? ?????????
bartosss
post Dec 1 2005, 08:27 PM
Post #10



Group Icon

Group: Members
Posts: 1
Joined: 26-November 05
Member No.: 3,833



CUE for CD 2; copy and paste into texteditor and save ass .cue

**************

PERFORMER "Metro_Fun"
TITLE "SOUNDBASE Chart List Vol.2"
FILE "01-metro_fun_-_soundbase_chart_list_vol.2-promo-cd-2005-hl.mp3" MP3
TRACK 01 AUDIO
TITLE "Kat - Autobiography"
PERFORMER "Metro_Fun"
INDEX 01 00:00:00
TRACK 02 AUDIO
TITLE "Jeckyll and Hyde - Precious Dreamer"
PERFORMER "Metro_Fun"
INDEX 01 02:43:21
TRACK 03 AUDIO
TITLE "Dj Act - The Sound Of Bass (Deepack Remix)"
PERFORMER "Metro_Fun"
INDEX 01 05:07:20
TRACK 04 AUDIO
TITLE "Southstylers - Wicked Generation"
PERFORMER "Metro_Fun"
INDEX 01 07:18:39
TRACK 05 AUDIO
TITLE "Tuneboy - Money Talks Bullshit Walks (Hardstyle Masterz Remix)"
PERFORMER "Metro_Fun"
INDEX 01 09:02:34
TRACK 06 AUDIO
TITLE "Ma-pe-rook - Here Comes The Bass (Hard Mix)"
PERFORMER "Metro_Fun"
INDEX 01 13:08:67
TRACK 07 AUDIO
TITLE "Dj Vortex - Incoming 2005 (4 Navigators Remix)"
PERFORMER "Metro_Fun"
INDEX 01 16:06:35
TRACK 08 AUDIO
TITLE "Southstylers - Jazeker"
PERFORMER "Metro_Fun"
INDEX 01 17:26:59
TRACK 09 AUDIO
TITLE "Dj Pibert - Believe (Coca Remix)"
PERFORMER "Metro_Fun"
INDEX 01 20:33:35
TRACK 10 AUDIO
TITLE "Dj Act - The Sound Of Bass (Coca Remix)"
PERFORMER "Metro_Fun"
INDEX 01 23:09:00
TRACK 11 AUDIO
TITLE "Special D - Come With Me (Rob Mayth Remix)"
PERFORMER "Metro_Fun"
INDEX 01 26:16:35
????????? ? ?????? ????????
 
+???????? ? ???????????? ??????? ?????????
phill
post Dec 6 2005, 11:37 AM
Post #11



Group Icon

Group: Members
Posts: 2
Joined: 14-November 05
Member No.: 3,310



can sum1 please upload n post a link 2 Metro_Fun - SOUNDBASE Chart List Mix Vol.1 & Vol.2 2005 the links have been temp blocked n i didnt have a chace to download it or e-mail me the link @ th3_hobo_clown@ntlworld.com

Cheers
????????? ? ?????? ????????
 
+???????? ? ???????????? ??????? ?????????
Hanqvist
post Dec 6 2005, 02:23 PM
Post #12



Group Icon

Group: Members
Posts: 1
Joined: 31-October 05
Member No.: 2,181



I Only have a question about this Cue file, why does everyone want this? What can you do with it
????????? ? ?????? ????????
 
+???????? ? ???????????? ??????? ?????????

2 Pages V   1 2 >
??????? ????????????? ? ??? ??????????? ????? ????
1 User(s) are reading this topic (1 Guests and 0 Anonymous Users)
0 Members:

 



Lo-Fi Version Time is now: 27th May 2017 - 05:19 AM